Let's Play, Boy (2008)

Odkazy na dokumenty ve vysokém rozlišení
Odpovědět
31255978
Začátečník (480p)
Začátečník (480p)
Příspěvky: 44
Registrován: čtv led 28, 2016 2:50 am

Let's Play, Boy (2008)

Příspěvek od 31255978 »

Lets.Play.Boy.2008.1080p.AMZN.WEBRip.DDP2.0.x264-TrollHD

Kód: Vybrat vše

https://www.csfd.cz/film/269484-let-s-play-boy/komentare/


Obrázek

Obrázek

Kód: Vybrat vše

https://www.keeplinks.org/p49/5dc8f914b8613


Obrázek

Kód: Vybrat vše

Video
ID : 1
Format : AVC
Format/Info : Advanced Video Codec
Format profile : High@L4
Format settings : CABAC / 4 Ref Frames
Format settings, CABAC : Yes
Format settings, Reference frames : 4 frames
Codec ID : V_MPEG4/ISO/AVC
Duration : 58 min 0 s
Bit rate mode : Variable
Bit rate : 10.8 Mb/s
Maximum bit rate : 15.0 Mb/s
Width : 1 920 pixels
Height : 1 080 pixels
Display aspect ratio : 16:9
Frame rate mode : Constant
Frame rate : 25.000 FPS
Color space : YUV
Chroma subsampling : 4:2:0
Bit depth : 8 bits
Scan type : Progressive
Bits/(Pixel*Frame) : 0.208
Stream size : 4.36 GiB (98%)
Default : Yes
Forced : No
Color range : Limited
Color primaries : BT.709
Transfer characteristics : BT.709
Matrix coefficients : BT.709

Audio
ID : 2
Format : E-AC-3
Format/Info : Enhanced AC-3
Commercial name : Dolby Digital Plus
Codec ID : A_EAC3
Duration : 58 min 0 s
Bit rate mode : Constant
Bit rate : 224 kb/s
Channel(s) : 2 channels
Channel layout : L R
Sampling rate : 48.0 kHz
Frame rate : 31.250 FPS (1536 SPF)
Compression mode : Lossy
Stream size : 92.9 MiB (2%)
Language : English
Service kind : Complete Main
Default : Yes
Forced : No

Text #1
ID : 3
Format : UTF-8
Codec ID : S_TEXT/UTF8
Codec ID/Info : UTF-8 Plain Text
Duration : 57 min 56 s
Bit rate : 87 b/s
Count of elements : 940
Stream size : 36.9 KiB (0%)
Language : English
Default : No
Forced : No

Text #2
ID : 4
Format : UTF-8
Codec ID : S_TEXT/UTF8
Codec ID/Info : UTF-8 Plain Text
Duration : 57 min 56 s
Bit rate : 90 b/s
Count of elements : 994
Stream size : 38.5 KiB (0%)
Title : SDH
Language : English
Default : No
Forced : No
Odpovědět