V čem je problém?

Návody jak na HD video, převody, přehrávání, stahování
Nováček
Příspěvky: 3
Registrován: 05 bře 2011 18:47

V čem je problém?

Příspěvekod jarkh » 11 bře 2011 12:39

Zdarím.
Jsem naprostý laik, proto bych se Vás rád poptal na názor, v čem může být problém a jak ho případně odstranit.
Mám TV Samsung ue37c6000 a do slotu USB připojený externí 1,5TB HDD. Samozřejmě si rád přehrávám přes něj pouštím filmy, ale semtam se mi "podaří" stáhnout film, který mi telka prostě při takto připojeném HDD nevezme. Naposled se mi to stalo u Band of brothers...

kód:
Format : Matroska
File size : 6.66 GiB
Duration : 1h 13mn
Overall bit rate : 13.0 Mbps
Encoded date : UTC 2008-07-29 22:16:22
Writing application : mkvmerge v2.2.0 ('Turn It On Again') built on Mar 4 2008 13:20:25
Writing library : libebml v0.7.7 + libmatroska v0.8.1
Video #1
ID : 1
Format : AVC
Format/Info : Advanced Video Codec
Format profile : High@L5.1
Format settings, CABAC : Yes
Format settings, ReFrames : 8 frames
Muxing mode : Container profile=Unknown@5.1
Codec ID : V_MPEG4/ISO/AVC
Duration : 1h 13mn
Bit rate : 11.0 Mbps
Nominal bit rate : 11.3 Mbps
Width : 1 920 pixels
Height : 1 072 pixels
Display aspect ratio : 16:9
Original display aspect ratio : 16:9
Frame rate : 23.976 fps
Resolution : 24 bits
Colorimetry : 4:2:0
Scan type : Progressive
Bits/(Pixel*Frame) : 0.224
Stream size : 5.65 GiB (85%)
Title : Video
Writing library : x264 core 56 svn-667C

Audio #2
ID : 2
Format : AC-3
Format/Info : Audio Coding 3
Codec ID : A_AC3
Duration : 1h 13mn
Bit rate mode : Constant
Bit rate : 192 Kbps
Channel(s) : 2 channels
Channel positions : L R
Sampling rate : 48.0 KHz
Stream size : 101 MiB (1%)
Title : Czech
Language : Czech
Audio #3
ID : 3
Format : DTS
Format/Info : Digital Theater Systems
Codec ID : A_DTS
Duration : 1h 13mn
Bit rate mode : Constant
Bit rate : 1 510 Kbps
Channel(s) : 6 channels
Channel positions : Front: L C R, Surround: L R, LFE
Sampling rate : 48.0 KHz
Resolution : 16 bits
Stream size : 791 MiB (12%)
Title : English
Language : English
Text #4
ID : 4
Format : UTF-8
Codec ID : S_TEXT/UTF8
Codec ID/Info : UTF-8 Plain Text
Title : Czech
Language : Czech

Zde je tedy info k filmu.
Nešla ani jiná verze, kterou jsem zkusil stáhnout viz http://www.hd-forum.cz/viewtopic.php?t= ... c&start=15

Televize hlásí, že je nepodporovaný videokodek. Můžete prosím někdo poradit, v čem konkrétně je tedy problém, který kodek to způsobuje a jak by to případně mohlo jít upravit, aby to šlapalo? Vážně si nevím rady, prosím poraďte :(

Nováček
Příspěvky: 13
Registrován: 09 led 2011 13:34

Příspěvekod Jarolobo » 27 bře 2011 14:44

Vyskúšaj celý film ešte raz prehnať cez MKVmerge - načítaj ho, daj odstrániť všetko čo nepotrebuješ (titulky, jazyky, kapitoly) a pusti Start muxing. V 70% prípadoch mi to pomohlo.

Nováček
Příspěvky: 3
Registrován: 05 bře 2011 18:47

Příspěvekod jarkh » 24 kvě 2011 16:43

Tak se mi to bohužel nepodařilo. Přemuxoval jsem to, myslim, že s emi i podařilo změnit High@L5.1 na High@L4.1(0), ale stejně mi to telka nechce přehrát. Tak už vážně nevím co s tím :( Nedaří se mi najít žádná verze toho Bratrstva, kterou by telka přehrála :(

Nováček
Příspěvky: 9
Registrován: 22 úno 2010 16:09

Příspěvekod PaPe » 27 kvě 2011 15:28

Hodne zalezi kolik ten film ma referencnich snimku. Nekter TV i prehravace prehraji pouze 4 referencni snimky. Je to potom hodne narocne na hardware cim vice ref. snimku

Nováček
Příspěvky: 3
Registrován: 05 bře 2011 18:47

Příspěvekod jarkh » 27 kvě 2011 18:49

hmm...no je to jedna z věcí, která mne při mých zoufalých pokusech taky napadla, tedy pokud je myšleno toto - Format settings, ReFrames : 8 frames .
Bohužel u tohoto vůbec netuším, jak by se hodnota dala snížit třeba na 4, což je asi běžnější hodnota co jsem tak vypozoroval u jiných filmů.
Hold jsem asi v pasti, škoda, že někdo to Bratrsvo nepředělá do trochu méně náročné verze :(

Zpět na Návody

Kdo je online

Uživatelé procházející toto fórum: Žádní registrovaní uživatelé a 1 návštěvník