Arena (2011)

Místo pro špatné příspěvky nebo příspěvky s nefunkčními linky
Začátečník (480p)
Příspěvky: 31
Registrován: 07 led 2011 17:15

Arena (2011)

Příspěvekod full_hd_uploader » 13 pro 2011 14:11

Arena (2011)
Obrázek

NFO:
KódBitster.cz : neomezené stahování nyní rychlostí až 1Gb/s - TIP : 150 GB jen za 99 Kč:
Pouze registrovaní uživatelé mohou vidět odkazy. Registrujte se nebo Přihlašte.


SAMPLE:
[Hide]
KódBitster.cz : neomezené stahování nyní rychlostí až 1Gb/s - TIP : 150 GB jen za 99 Kč:
Pouze registrovaní uživatelé mohou vidět odkazy. Registrujte se nebo Přihlašte.
[/Hide]

DOWNLOAD:

[Hide]SHARE-RAPID:
KódBitster.cz : neomezené stahování nyní rychlostí až 1Gb/s - TIP : 150 GB jen za 99 Kč:
Pouze registrovaní uživatelé mohou vidět odkazy. Registrujte se nebo Přihlašte.


HELLSHARE:
KódBitster.cz : neomezené stahování nyní rychlostí až 1Gb/s - TIP : 150 GB jen za 99 Kč:
Pouze registrovaní uživatelé mohou vidět odkazy. Registrujte se nebo Přihlašte.


FILESERVE:
KódBitster.cz : neomezené stahování nyní rychlostí až 1Gb/s - TIP : 150 GB jen za 99 Kč:
Pouze registrovaní uživatelé mohou vidět odkazy. Registrujte se nebo Přihlašte.


FILESONIC:
KódBitster.cz : neomezené stahování nyní rychlostí až 1Gb/s - TIP : 150 GB jen za 99 Kč:
Pouze registrovaní uživatelé mohou vidět odkazy. Registrujte se nebo Přihlašte.


NETLOAD:
KódBitster.cz : neomezené stahování nyní rychlostí až 1Gb/s - TIP : 150 GB jen za 99 Kč:
Pouze registrovaní uživatelé mohou vidět odkazy. Registrujte se nebo Přihlašte.

[/Hide]

bez hesla
linky su kombinovatelne

Zkušený (720p)
Uživatelský avatar
Příspěvky: 206
Registrován: 17 pro 2008 23:52

Příspěvekod Walldauf » 14 pro 2011 10:59

Aréna / En DTS 5.1 / tit.Cz,Sk

Obrázek RLS.Arena.2011.720p.BluRay.x264.DTS-HDChina
Obrázek
Obrázek
KódBitster.cz : neomezené stahování nyní rychlostí až 1Gb/s - TIP : 150 GB jen za 99 Kč:
Pouze registrovaní uživatelé mohou vidět odkazy. Registrujte se nebo Přihlašte.

ObrázekObrázekObrázek
KódBitster.cz : neomezené stahování nyní rychlostí až 1Gb/s - TIP : 150 GB jen za 99 Kč:
Pouze registrovaní uživatelé mohou vidět odkazy. Registrujte se nebo Přihlašte.

Obrázek
Obrázek
KódBitster.cz : neomezené stahování nyní rychlostí až 1Gb/s - TIP : 150 GB jen za 99 Kč:
Pouze registrovaní uživatelé mohou vidět odkazy. Registrujte se nebo Přihlašte.


Obrázek
KódBitster.cz : neomezené stahování nyní rychlostí až 1Gb/s - TIP : 150 GB jen za 99 Kč:
Pouze registrovaní uživatelé mohou vidět odkazy. Registrujte se nebo Přihlašte.

Obrázek Soubory 001,002,003.........spoj pomocí Total Commanderu.
Obrázek

Expert (1080p)
Příspěvky: 390
Registrován: 09 dub 2009 09:38

Příspěvekod gogomiro » 15 pro 2011 02:01

Arena / 2011 / 720p / DTS EN

original release Arena.2011.720p.BluRay.x264.DTS-HDChina - obsahuje cz titulky

Obrázek

ObrázekObrázek
Obrázek 720p
KódBitster.cz : neomezené stahování nyní rychlostí až 1Gb/s - TIP : 150 GB jen za 99 Kč:
Pouze registrovaní uživatelé mohou vidět odkazy. Registrujte se nebo Přihlašte.

Obrázek
KódBitster.cz : neomezené stahování nyní rychlostí až 1Gb/s - TIP : 150 GB jen za 99 Kč:
Pouze registrovaní uživatelé mohou vidět odkazy. Registrujte se nebo Přihlašte.

Obrázek Share-rapid, CZshare, Hellshare [999mb]
KódBitster.cz : neomezené stahování nyní rychlostí až 1Gb/s - TIP : 150 GB jen za 99 Kč:
Pouze registrovaní uživatelé mohou vidět odkazy. Registrujte se nebo Přihlašte.

KódBitster.cz : neomezené stahování nyní rychlostí až 1Gb/s - TIP : 150 GB jen za 99 Kč:
Pouze registrovaní uživatelé mohou vidět odkazy. Registrujte se nebo Přihlašte.

KódBitster.cz : neomezené stahování nyní rychlostí až 1Gb/s - TIP : 150 GB jen za 99 Kč:
Pouze registrovaní uživatelé mohou vidět odkazy. Registrujte se nebo Přihlašte.

-= Pridaný záznam pre opravu dát 3% =-
-= Linky sú kombinovateľné / Links are interchangable =-
Obrázek Netload, Filesonic [101mb]
KódBitster.cz : neomezené stahování nyní rychlostí až 1Gb/s - TIP : 150 GB jen za 99 Kč:
Pouze registrovaní uživatelé mohou vidět odkazy. Registrujte se nebo Přihlašte.

-= Pridaný záznam pre opravu dát 3% =-
-= Linky sú kombinovateľné / Links are interchangable =-
Obrázek
KódBitster.cz : neomezené stahování nyní rychlostí až 1Gb/s - TIP : 150 GB jen za 99 Kč:
Pouze registrovaní uživatelé mohou vidět odkazy. Registrujte se nebo Přihlašte.

Obrázek
Neželám si reupload mojich HD príspevkov+vynášanie na torrent trackery. V prípade mŕtvych linkiek mi napíšte (PM)SZ a ja sa budem snažiť čo najskôr to opraviť.

Zkušený (720p)
Příspěvky: 250
Registrován: 02 kvě 2010 19:35

Příspěvekod lapepa » 15 led 2012 15:10

Arena (2011) / 720p / CZ
Obrázek

Obrázek
KódBitster.cz : neomezené stahování nyní rychlostí až 1Gb/s - TIP : 150 GB jen za 99 Kč:
Pouze registrovaní uživatelé mohou vidět odkazy. Registrujte se nebo Přihlašte.




Obrázek
GENERAL 720p CZ
Format : Matroska
File size : 5.80 GiB
Duration : 1h 34mn
Overall bit rate : 8 811 Kbps
Movie name : Arena.2011.BluRay.720p.DTS.x264.CHD.CZ-D4rR
Encoded date : UTC 2012-01-14 15:46:33
Writing application : mkvmerge v4.9.1 ('Ich will') built on Jul 11 2011 23:53:15
Writing library : libebml v1.2.1 + libmatroska v1.1.1

Video
ID : 1
Format : AVC
Format/Info : Advanced Video Codec
Format profile : High@L4.1
Format settings, CABAC : Yes
Format settings, ReFrames : 12 frames
Muxing mode : Header stripping
Codec ID : V_MPEG4/ISO/AVC
Duration : 1h 34mn
Bit rate : 6 857 Kbps
Width : 1 280 pixels
Height : 542 pixels
Display aspect ratio : 2.35:1
Frame rate : 23.976 fps
Color space : YUV
Chroma subsampling : 4:2:0
Bit depth : 8 bits
Scan type : Progressive
Bits/(Pixel*Frame) : 0.412
Stream size : 4.40 GiB (76%)
Title : Arena.2011.BluRay.720p.DTS.x264.CHD.CZ-D4rR
Writing library : x264 core 119 r2106+636 fcb18f7
Encoding settings : cabac=1 / ref=12 / deblock=1:-3:-3 / analyse=0x3:0x113 / me=umh / subme=10 / psy=1 / fade_compensate=0.00 / psy_rd=1.05:0.10 / mixed_ref=1 / me_range=32 / chroma_me=1 / trellis=2 / 8x8dct=1 / cqm=1 / deadzone=21,11 / fast_pskip=0 / chroma_qp_offset=-2 / threads=12 / sliced_threads=0 / nr=0 / decimate=1 / interlaced=0 / bluray_compat=0 / constrained_intra=0 / fgo=0 / bframes=6 / b_pyramid=2 / b_adapt=2 / b_bias=0 / direct=3 / weightb=1 / open_gop=0 / weightp=2 / keyint=250 / keyint_min=23 / scenecut=40 / intra_refresh=0 / rc_lookahead=40 / rc=2pass / mbtree=1 / bitrate=6857 / ratetol=1.0 / qcomp=0.70 / qpmin=3 / qpmax=69 / qpstep=4 / cplxblur=20.0 / qblur=0.5 / vbv_maxrate=40000 / vbv_bufsize=30000 / nal_hrd=none / ip_ratio=1.40 / aq=2:1.00
Language : English

Audio #1
ID : 2
Format : DTS
Format/Info : Digital Theater Systems
Muxing mode : Header stripping
Codec ID : A_DTS
Duration : 1h 34mn
Bit rate mode : Constant
Bit rate : 1 510 Kbps
Channel(s) : 6 channels
Channel positions : Front: L C R, Side: L R, LFE
Sampling rate : 48.0 KHz
Bit depth : 24 bits
Compression mode : Lossy
Stream size : 1 018 MiB (17%)
Title : DTS 5.1 @ 1.5 Mbps
Language : English

Audio #2
ID : 3
Format : AC-3
Format/Info : Audio Coding 3
Mode extension : CM (complete main)
Muxing mode : Header stripping
Codec ID : A_AC3
Duration : 1h 34mn
Bit rate mode : Constant
Bit rate : 448 Kbps
Channel(s) : 6 channels
Channel positions : Front: L C R, Side: L R, LFE
Sampling rate : 48.0 KHz
Bit depth : 16 bits
Compression mode : Lossy
Stream size : 302 MiB (5%)
Title : DD 5.1 @ 448 Kbps
Language : Czech

Text #1
ID : 4
Format : UTF-8
Codec ID : S_TEXT/UTF8
Codec ID/Info : UTF-8 Plain Text
Language : Slovak

Text #2
ID : 5
Format : UTF-8
Codec ID : S_TEXT/UTF8
Codec ID/Info : UTF-8 Plain Text
Language : Czech




Obrázek
KódBitster.cz : neomezené stahování nyní rychlostí až 1Gb/s - TIP : 150 GB jen za 99 Kč:
Pouze registrovaní uživatelé mohou vidět odkazy. Registrujte se nebo Přihlašte.



Obrázek
KódBitster.cz : neomezené stahování nyní rychlostí až 1Gb/s - TIP : 150 GB jen za 99 Kč:
Pouze registrovaní uživatelé mohou vidět odkazy. Registrujte se nebo Přihlašte.



Obrázek
KódBitster.cz : neomezené stahování nyní rychlostí až 1Gb/s - TIP : 150 GB jen za 99 Kč:
Pouze registrovaní uživatelé mohou vidět odkazy. Registrujte se nebo Přihlašte.


Obrázek
KódBitster.cz : neomezené stahování nyní rychlostí až 1Gb/s - TIP : 150 GB jen za 99 Kč:
Pouze registrovaní uživatelé mohou vidět odkazy. Registrujte se nebo Přihlašte.

Pokročilý (576p)
Příspěvky: 149
Registrován: 10 led 2011 21:44

Příspěvekod coxpedro » 16 led 2012 21:10

Aréna / 2011 / 720p / DTS EN 5.1 / DD 5.1 CZ

Obrázek

Obrázek
KódBitster.cz : neomezené stahování nyní rychlostí až 1Gb/s - TIP : 150 GB jen za 99 Kč:
Pouze registrovaní uživatelé mohou vidět odkazy. Registrujte se nebo Přihlašte.

Akční / Thriller
USA, 2011
Režie:
Jonah Loop
Hrají:
Nina Dobrev, Samuel L. Jackson, Kellan Lutz, Daniel Dae Kim, James Remar, Derek Mears, Johnny Messner, Vanessa Branch, Lauren Shiohama, Marcelle Baer, Thomas C. Daniel

Jak vydělat miliony na touze lidí vidět krev? Protřelý sadistický obchodník (Samuel L. Jackson) to dokázal, když vybudoval impérium pomocí internetové stránky, na které spolu novodobí gladiátoři svádí souboje na život a na smrt. Jeho nejnovějším objevem je David Lord (Kellan Lutz), požárník, kterého unesli, uvěznili a donutili bojovat o vlastní život. Aby se David dostal na svobodu, je ochotný utkat se v sérii krvavých zápasů. Své soupeře zdolává jednoho za druhým, ale nejtěžší bitva ho ještě čeká. Teprve během ní rozpoutá skutečné krveprolití a odhalí tajemství, kvůli kterému se může celý výdělečný podnik zhroutit. Ve vedlejších rolích se představují Daniel Dae Kim (TV seriál ?Ztraceni?) a Nina Dobrev (TV seriál ?The Vampire Diaries?).

Obrázek
RLS:Arena.2011.BluRay.720p.DTS.x264.CHD.CZ-D4rR
Format : Matroska
Format version : Version 2
File size : 5.80 GiB
Duration : 1h 34mn
Overall bit rate : 8 811 Kbps
Movie name : Arena.2011.BluRay.720p.DTS.x264.CHD.CZ-D4rR
Encoded date : UTC 2012-01-14 15:46:33
Writing application : mkvmerge v4.9.1 ('Ich will') built on Jul 11 2011 23:53:15
Writing library : libebml v1.2.1 + libmatroska v1.1.1

Video
ID : 1
Format : AVC
Format/Info : Advanced Video Codec
Format profile : High@L4.1
Format settings, CABAC : Yes
Format settings, ReFrames : 12 frames
Muxing mode : Header stripping
Codec ID : V_MPEG4/ISO/AVC
Duration : 1h 34mn
Bit rate : 6 857 Kbps
Width : 1 280 pixels
Height : 542 pixels
Display aspect ratio : 2.35:1
Frame rate : 23.976 fps
Color space : YUV
Chroma subsampling : 4:2:0
Bit depth : 8 bits
Scan type : Progressive
Bits/(Pixel*Frame) : 0.412
Stream size : 4.40 GiB (76%)
Writing library : x264 core 119 r2106+636 fcb18f7
Encoding settings : cabac=1 / ref=12 / deblock=1:-3:-3 / analyse=0x3:0x113 / me=umh / subme=10 / psy=1 / fade_compensate=0.00 / psy_rd=1.05:0.10 / mixed_ref=1 / me_range=32 / chroma_me=1 / trellis=2 / 8x8dct=1 / cqm=1 / deadzone=21,11 / fast_pskip=0 / chroma_qp_offset=-2 / threads=12 / sliced_threads=0 / nr=0 / decimate=1 / interlaced=0 / bluray_compat=0 / constrained_intra=0 / fgo=0 / bframes=6 / b_pyramid=2 / b_adapt=2 / b_bias=0 / direct=3 / weightb=1 / open_gop=0 / weightp=2 / keyint=250 / keyint_min=23 / scenecut=40 / intra_refresh=0 / rc_lookahead=40 / rc=2pass / mbtree=1 / bitrate=6857 / ratetol=1.0 / qcomp=0.70 / qpmin=3 / qpmax=69 / qpstep=4 / cplxblur=20.0 / qblur=0.5 / vbv_maxrate=40000 / vbv_bufsize=30000 / nal_hrd=none / ip_ratio=1.40 / aq=2:1.00
Language : English

Audio #1
ID : 2
Format : DTS
Format/Info : Digital Theater Systems
Muxing mode : Header stripping
Codec ID : A_DTS
Duration : 1h 34mn
Bit rate mode : Constant
Bit rate : 1 510 Kbps
Channel(s) : 6 channels
Channel positions : Front: L C R, Side: L R, LFE
Sampling rate : 48.0 KHz
Bit depth : 24 bits
Compression mode : Lossy
Stream size : 1 018 MiB (17%)
Title : DTS 5.1 @ 1.5 Mbps
Language : English

Audio #2
ID : 3
Format : AC-3
Format/Info : Audio Coding 3
Mode extension : CM (complete main)
Muxing mode : Header stripping
Codec ID : A_AC3
Duration : 1h 34mn
Bit rate mode : Constant
Bit rate : 448 Kbps
Channel(s) : 6 channels
Channel positions : Front: L C R, Side: L R, LFE
Sampling rate : 48.0 KHz
Bit depth : 16 bits
Compression mode : Lossy
Stream size : 302 MiB (5%)
Title : DD 5.1 @ 448 Kbps
Language : Czech

Text #1
ID : 4
Format : UTF-8
Codec ID : S_TEXT/UTF8
Codec ID/Info : UTF-8 Plain Text
Language : Slovak

Text #2
ID : 5
Format : UTF-8
Codec ID : S_TEXT/UTF8
Codec ID/Info : UTF-8 Plain Text
Language : Czech


Obrázek

Obrázek
KódBitster.cz : neomezené stahování nyní rychlostí až 1Gb/s - TIP : 150 GB jen za 99 Kč:
Pouze registrovaní uživatelé mohou vidět odkazy. Registrujte se nebo Přihlašte.


Obrázek

Obrázek
KódBitster.cz : neomezené stahování nyní rychlostí až 1Gb/s - TIP : 150 GB jen za 99 Kč:
Pouze registrovaní uživatelé mohou vidět odkazy. Registrujte se nebo Přihlašte.


Obrázek

Obrázek

KódBitster.cz : neomezené stahování nyní rychlostí až 1Gb/s - TIP : 150 GB jen za 99 Kč:
Pouze registrovaní uživatelé mohou vidět odkazy. Registrujte se nebo Přihlašte.


Obrázek

Expert (1080p)
Příspěvky: 390
Registrován: 09 dub 2009 09:38

Příspěvekod gogomiro » 20 led 2012 00:15

Arena / 2011 / 720p / DTS EN / DD 5.1 CZ

original release Arena.2011.720p.BluRay.x264.DTS-HDChina - obsahuje aj cz titulky

Obrázek

ObrázekObrázek
Obrázek 720p
KódBitster.cz : neomezené stahování nyní rychlostí až 1Gb/s - TIP : 150 GB jen za 99 Kč:
Pouze registrovaní uživatelé mohou vidět odkazy. Registrujte se nebo Přihlašte.

Obrázek
KódBitster.cz : neomezené stahování nyní rychlostí až 1Gb/s - TIP : 150 GB jen za 99 Kč:
Pouze registrovaní uživatelé mohou vidět odkazy. Registrujte se nebo Přihlašte.

Obrázek Share-rapid, Hellshare [999mb]
KódBitster.cz : neomezené stahování nyní rychlostí až 1Gb/s - TIP : 150 GB jen za 99 Kč:
Pouze registrovaní uživatelé mohou vidět odkazy. Registrujte se nebo Přihlašte.

KódBitster.cz : neomezené stahování nyní rychlostí až 1Gb/s - TIP : 150 GB jen za 99 Kč:
Pouze registrovaní uživatelé mohou vidět odkazy. Registrujte se nebo Přihlašte.

-= Pridaný záznam pre opravu dát 3% =-
-= Linky sú kombinovateľné / Links are interchangable =-
Obrázek Netload, Filesonic [101mb]
KódBitster.cz : neomezené stahování nyní rychlostí až 1Gb/s - TIP : 150 GB jen za 99 Kč:
Pouze registrovaní uživatelé mohou vidět odkazy. Registrujte se nebo Přihlašte.

-= Pridaný záznam pre opravu dát 3% =-
-= Linky sú kombinovateľné / Links are interchangable =-
Obrázek
KódBitster.cz : neomezené stahování nyní rychlostí až 1Gb/s - TIP : 150 GB jen za 99 Kč:
Pouze registrovaní uživatelé mohou vidět odkazy. Registrujte se nebo Přihlašte.

Obrázek
Neželám si reupload mojich HD príspevkov+vynášanie na torrent trackery. V prípade mŕtvych linkiek mi napíšte (PM)SZ a ja sa budem snažiť čo najskôr to opraviť.

Zpět na Smetiště

Kdo je online

Uživatelé procházející toto fórum: Žádní registrovaní uživatelé a 5 návštevníků