Dnes je

Přesný čas



Bitster.cz




sberbank.cz


Brewsterovy milióny / Brewster's Millions (1985)

Místo pro špatné příspěvky nebo příspěvky s nefunkčními linky
Superuploader
Uživatelský avatar
Příspěvky: 877
Registrován: 05 bře 2014 19:25

Brewsterovy milióny / Brewster's Millions (1985)

Příspěvekod cybero75 » 27 bře 2016 10:13

Brewster's Millions / Brewsterovy milióny / 1080i / DD 2.0 CZ, DD 2.0 EN, DD 2.0 SK / CZ, SK tit / 1985

Obrázek

Vlastní rip: ne
CZ/SK audio: nevím
CZ/SK titulky: titulky.com
Název rlsu: Brewsters.Millions.1985.1080i.HDTV.AC3.C75.MultiDUB
Kvalita ripu: HDTV
Nástroje: iZotope RX, Audacity, Audition, EAC3to, MkvMerge, WinRar 5, Subtitle Edit
Poznámka: Re-up
Opis z předešlého náhozu: všechny tři DD audio stopy normalizovány, CZ a SK synchro a odšuměny (iZotope Rx)

Audio #1: CZ | AC3 | CBR 192 Kbps | 2.0 | (TV Prima) Dan Dítě a Zdena Junák - ČT Brno 1993
Audio #2: EN | AC3 | CBR 384 Kbps | 2.0
Audio #3: SK | AC3 | CBR 128 Kbps | 2.0 | Miro Noga a Štefan Skrúcaný - Bratislava 1987

KódBitster.cz : neomezené stahování nyní rychlostí až 1Gb/s - TIP : 150 GB jen za 99 Kč:
Pouze registrovaní uživatelé mohou vidět odkazy. Registrujte se nebo Přihlašte.


Obrázek Obrázek

KódBitster.cz : neomezené stahování nyní rychlostí až 1Gb/s - TIP : 150 GB jen za 99 Kč:
Pouze registrovaní uživatelé mohou vidět odkazy. Registrujte se nebo Přihlašte.


Čti více
Format : Matroska
Format version : Version 4 / Version 2
File size : 8.85 GiB
Duration : 1h 36mn
Overall bit rate mode : Variable
Overall bit rate : 13.1 Mbps
Movie name : Brewster's Millions / Brewsterovy milióny (1985-1080i-HDTV-AVC-AC3-MultiDUB)
Encoded date : UTC 2015-01-13 19:44:53
Writing application : mkvmerge v7.5.0 ('Glass Culture') 64bit built on Jan 4 2015 16:48:44
Writing library : libebml v1.3.1 + libmatroska v1.4.2

Video
ID : 1
Format : AVC
Format/Info : Advanced Video Codec
Format profile : Main@L4
Format settings, CABAC : Yes
Format settings, ReFrames : 4 frames
Format settings, GOP : M=4, N=13
Codec ID : V_MPEG4/ISO/AVC
Duration : 1h 36mn
Bit rate mode : Variable
Bit rate : 12.3 Mbps
Maximum bit rate : 40.0 Mbps
Width : 1 920 pixels
Height : 1 080 pixels
Display aspect ratio : 16:9
Frame rate mode : Variable
Frame rate : 50.000 fps
Original frame rate : 25.000 fps
Color space : YUV
Chroma subsampling : 4:2:0
Bit depth : 8 bits
Scan type : Interlaced
Scan type, store method : Separated fields
Scan order : Top Field First
Bits/(Pixel*Frame) : 0.119
Stream size : 8.33 GiB (94%)
Default : Yes
Forced : No
Color range : Full
Color primaries : BT.709
Transfer characteristics : BT.709
Matrix coefficients : BT.709

Audio #1
ID : 2
Format : AC-3
Format/Info : Audio Coding 3
Mode extension : CM (complete main)
Format settings, Endianness : Big
Codec ID : A_AC3
Duration : 1h 36mn
Bit rate mode : Constant
Bit rate : 192 Kbps
Channel(s) : 2 channels
Channel positions : Front: L R
Sampling rate : 48.0 KHz
Frame rate : 31.250 fps (1536 spf)
Compression mode : Lossy
Stream size : 133 MiB (1%)
Language : Czech
Default : Yes
Forced : No

Audio #2
ID : 3
Format : AC-3
Format/Info : Audio Coding 3
Mode extension : CM (complete main)
Format settings, Endianness : Big
Codec ID : A_AC3
Duration : 1h 36mn
Bit rate mode : Constant
Bit rate : 192 Kbps
Channel(s) : 2 channels
Channel positions : Front: L R
Sampling rate : 48.0 KHz
Frame rate : 31.250 fps (1536 spf)
Compression mode : Lossy
Stream size : 133 MiB (1%)
Language : Slovak
Default : No
Forced : No

Audio #3
ID : 4
Format : AC-3
Format/Info : Audio Coding 3
Mode extension : CM (complete main)
Format settings, Endianness : Big
Codec ID : A_AC3
Duration : 1h 36mn
Bit rate mode : Constant
Bit rate : 384 Kbps
Channel(s) : 2 channels
Channel positions : Front: L R
Sampling rate : 48.0 KHz
Frame rate : 31.250 fps (1536 spf)
Compression mode : Lossy
Stream size : 266 MiB (3%)
Language : English
Default : No
Forced : No

Text #1
ID : 5
Format : UTF-8
Codec ID : S_TEXT/UTF8
Codec ID/Info : UTF-8 Plain Text
Duration : 1h 33mn
Bit rate : 98 bps
Count of elements : 1543
Stream size : 67.7 KiB (0%)
Language : Czech
Default : No
Forced : No

Text #2
ID : 6
Format : UTF-8
Codec ID : S_TEXT/UTF8
Codec ID/Info : UTF-8 Plain Text
Duration : 1h 33mn
Bit rate : 90 bps
Count of elements : 1373
Stream size : 62.2 KiB (0%)
Language : Slovak
Default : No
Forced : No



ObrázekObrázek
4 x 2 GB + 1.3 GB
KódBitster.cz : neomezené stahování nyní rychlostí až 1Gb/s - TIP : 150 GB jen za 99 Kč:
Pouze registrovaní uživatelé mohou vidět odkazy. Registrujte se nebo Přihlašte.


Heslo
KódBitster.cz : neomezené stahování nyní rychlostí až 1Gb/s - TIP : 150 GB jen za 99 Kč:
Pouze registrovaní uživatelé mohou vidět odkazy. Registrujte se nebo Přihlašte.
- Odkazy jsou kombinovatelné, přidán 3% záznam pro opravu dat
- Archivováno ve WinRARu 5, proto je dobré mít nejnovější verzi
- Nepřeji si vynášení a reup vlastních ripů, koncovka C75, díky!
- Všechny vlastní ripy jsou v levelu Bez omezení (AVC Level: Unrestricted), bez bitrate stropu

Zpět na Smetiště

Kdo je online

Uživatelé procházející toto fórum: Google [Bot] a 2 návštevníků