Tenkrát na Západě / C'era una volta il West (1968)

Odkazy na filmy v Blu-ray
Začátečník (480p)
Online
Příspěvky: 17
Registrován: 26 led 2011 11:13

Tenkrát na Západě / C'era una volta il West (1968)

Příspěvekod pavloff » 26 črc 2012 17:24

Tenkrát na Západě (1968)
Once Upon a Time in the West (1968)





BLU-RAY REMUX CZ 2.0 + ENG DTS-MA 5.1 audio+CZ titulky
obsahuje 2 rozdílné verze českého dabingu



Western
Itálie / USA, 1968, 175 min



KódBitster.cz : neomezené stahování nyní rychlostí až 1Gb/s - TIP : 150 GB jen za 99 Kč:
Pouze registrovaní uživatelé mohou vidět odkazy. Registrujte se nebo Přihlašte.






E:\BDMV\STREAM\00000.m2ts
General #1
ID : 1 (0x1)
Complete name : E:\BDMV\STREAM\00000.m2ts
Format : BDAV
Format/Info : Blu-ray Video
File size : 34.5 GiB
Duration : 2h 46mn
Overall bit rate mode : Variable
Overall bit rate : 29.7 Mbps
Maximum Overall bit rate : 35.5 Mbps

Video #4113
ID : 4113 (0x1011)
Menu ID : 1 (0x1)
Format : AVC
Format/Info : Advanced Video Codec
Format profile : High@L4.1
Format settings, CABAC : Yes
Format settings, ReFrames : 2 frames
Format settings, GOP : M=1, N=10
Codec ID : 27
Duration : 2h 46mn
Bit rate mode : Variable
Bit rate : 26.5 Mbps
Width : 1 920 pixels
Height : 1 080 pixels
Display aspect ratio : 16:9
Frame rate : 23.976 fps
Color space : YUV
Chroma subsampling : 4:2:0
Bit depth : 8 bits
Scan type : Progressive
Bits/(Pixel*Frame) : 0.533
Stream size : 30.7 GiB (89%)

Audio #4352
ID : 4352 (0x1100)
Menu ID : 1 (0x1)
Format : AC-3
Format/Info : Audio Coding 3
Mode extension : CM (complete main)
Codec ID : 129
Duration : 2h 46mn
Bit rate mode : Constant
Bit rate : 224 Kbps
Channel(s) : 2 channels
Channel positions : Front: L R
Sampling rate : 48.0 KHz
Bit depth : 16 bits
Compression mode : Lossy
Stream size : 266 MiB (1%)
Language : Czech

Audio #4353
ID : 4353 (0x1101)
Menu ID : 1 (0x1)
Format : AC-3
Format/Info : Audio Coding 3
Mode extension : CM (complete main)
Codec ID : 129
Duration : 2h 46mn
Bit rate mode : Constant
Bit rate : 224 Kbps
Channel(s) : 2 channels
Channel positions : Front: L R
Sampling rate : 48.0 KHz
Bit depth : 16 bits
Compression mode : Lossy
Stream size : 266 MiB (1%)
Language : Czech

Audio #4354
ID : 4354 (0x1102)
Menu ID : 1 (0x1)
Format : DTS
Format/Info : Digital Theater Systems
Format profile : MA / Core
Muxing mode : Stream extension
Codec ID : 134
Duration : 2h 46mn
Bit rate mode : Variable
Bit rate : 1 576 Kbps / 1 510 Kbps
Channel(s) : 6 channels
Channel positions : Front: L C R, Side: L R, LFE
Sampling rate : 48.0 KHz
Bit depth : 24 bits
Compression mode : Lossless / Lossy
Language : English

Text #4608
ID : 4608 (0x1200)
Menu ID : 1 (0x1)
Format : PGS
Codec ID : 144
Language : Czech


Obrázek
KódBitster.cz : neomezené stahování nyní rychlostí až 1Gb/s - TIP : 150 GB jen za 99 Kč:
Pouze registrovaní uživatelé mohou vidět odkazy. Registrujte se nebo Přihlašte.








Obrázek
Heslo k rozbalení archívu: pavloff



1000MB PARTy vzájemně zaměnitelné






v případě nějakých potíží napište PM

Nováček
Příspěvky: 1
Registrován: 11 led 2017 09:57

Re: Tenkrát na Západě / C'era una volta il West (1968)

Příspěvekod helliskola » 15 dub 2018 15:14

Velká vďaka super film

Zpět na Blu-ray CZ

Kdo je online

Uživatelé procházející toto fórum: Žádní registrovaní uživatelé a 0 návštevníků